Wanted(2010)-DVDRip-1CD-MP3-XVID - Forum-We_R_F_&_F
Please enable / Bitte aktiviere JavaScript!
Veuillez activer / Por favor activa el Javascript![ ? ]
[ New messages · Members · Forum rules · Search · RSS ]
Page 1 of 11
Forum-We_R_F_&_F » ::..:: Hindi Zone ::..:: » Hindi Video Songs » Wanted(2010)-DVDRip-1CD-MP3-XVID
Wanted(2010)-DVDRip-1CD-MP3-XVID
zxtuDate: Monday, 2011-01-17, 11:33 AM | Message # 11295253225
Generalissimo
Group: Administrators
Messages: 1409
Reputation: 0
Status: Offline

RIP INFO.
Quote:
Format : AVI
Format/Info : Audio Video Interleave
File size : 702 MiB
Duration : 2h 33mn
Overall bit rate : 641 Kbps
Writing application : VirtualDubMod 1.5.4.1 (build 2178/release)
Writing library : VirtualDubMod build 2178/release
VIDEO INFO.
Quote:
ID : 0
Format : MPEG-4 Visual
Format profile : AdvancedSimple@L5
Format settings, BVOP : Yes
Format settings, QPel : No
Format settings, GMC : No warppoints
Format settings, Matrix : Custom
Codec ID : XVID
Codec ID/Hint : XviD
Duration : 2h 33mn
Bit rate : 509 Kbps
Width : 800 pixels
Height : 352 pixels
Display aspect ratio : 2.25:1
Frame rate : 29.970 fps
Resolution : 24 bits
Colorimetry : 4:2:0
Scan type : Progressive
Bits/(Pixel*Frame) : 0.060
Stream size : 558 MiB (80%)
Writing library : XviD 1.2.1 (UTC 2008-12-04)
AUDIO INFO.
Quote:
ID : 1
Format : MPEG Audio
Format version : Version 1
Format profile : Layer 3
Codec ID : 55
Codec ID/Hint : MP3
Duration : 2h 33mn
Bit rate mode : Variable
Bit rate : 117 Kbps
Nominal bit rate : 128 Kbps
Channel(s) : 2 channels
Sampling rate : 48.0 KHz
Resolution : 16 bits
Stream size : 129 MiB (18%)
Alignment : Aligned on interleaves
Interleave, duration : 24 ms (0.72 video frame)
Interleave, preload duration : 157 ms
Writing library : LAME3.98r
Encoding settings : -m j -V 4 -q 2 -lowpass 17 --abr 128
INFO-IN BRIEF.

Quote:
Format : AVI
Size : 702 MB
Resolution : 800X352
Source : Original DVD
Duration : 02:33 :10
Audio : MP3, 2 Channel, 128 KBPS


Code:

http://www.mediafire.com/?gej95nj8yyd3hey
http://www.mediafire.com/?x78az44wbedhcak
http://www.mediafire.com/?15dkda17kf2nag2
http://www.mediafire.com/?rtsdbhbsxl8kyvb

 
Forum-We_R_F_&_F » ::..:: Hindi Zone ::..:: » Hindi Video Songs » Wanted(2010)-DVDRip-1CD-MP3-XVID
Page 1 of 11
Search: