Bolo Na Tumi Aamar (2010) - DVDRip - 1CD - XviD - MP3 - Forum-We_R_F_&_F
Please enable / Bitte aktiviere JavaScript!
Veuillez activer / Por favor activa el Javascript![ ? ]
[ New messages · Members · Forum rules · Search · RSS ]
Page 1 of 11
Forum-We_R_F_&_F » :..:: Bangla Zone ::..: » Kolkata Entertainment » Bolo Na Tumi Aamar (2010) - DVDRip - 1CD - XviD - MP3
Bolo Na Tumi Aamar (2010) - DVDRip - 1CD - XviD - MP3
zxtuDate: Tuesday, 2011-01-25, 12:16 PM | Message # 11295947000
Generalissimo
Group: Administrators
Messages: 1409
Reputation: 0
Status: Offline

Cast : Dev, Koyel, Sabyasachi Chakraborty, Bharat Kaul, Tota Roychoudhury & More
Music : Jeet Ganguly
Lyrics : Priyo Chatterjee & Goutam Sushmit
Action : Judo Ramu
Story & Screenplay : N.K.Salil
Producer : Surinder Films
Director : Sujit Mondal

~~~~Video Details~~~~~~
Format : AVI
Format/Info : Audio Video Interleave
File size : 698 MiB
Duration : 2h 35mn
Overall bit rate : 628 Kbps
Writing application : VirtualDubMod 1.5.4.1 (build 2178/release)
Writing library : VirtualDubMod build 2178/release
ID : 0
Format : MPEG-4 Visual
Format profile : AdvancedSimple@L5
Format settings, BVOP : Yes
Format settings, QPel : No
Format settings, GMC : No warppoints
Format settings, Matrix : Custom
Codec ID : XVID
Codec ID/Hint : XviD
Duration : 2h 35mn
Bit rate : 506 Kbps
Width : 672 pixels
Height : 304 pixels
Display aspect ratio : 2.2:1
Frame rate : 29.970 fps
Resolution : 24 bits
Colorimetry : 4:2:0
Scan type : Progressive
Bits/(Pixel*Frame) : 0.083
Stream size : 563 MiB (81%)
Writing library : XviD 1.2.1 (UTC 2008-12-04)
Audio
ID : 1
Format : MPEG Audio
Format version : Version 1
Format profile : Layer 3
Codec ID : 55
Codec ID/Hint : MP3
Duration : 2h 35mn
Bit rate mode : Variable
Bit rate : 108 Kbps
Nominal bit rate : 128 Kbps
Channel(s) : 2 channels
Sampling rate : 48.0 KHz
Resolution : 16 bits
Stream size : 120 MiB (17%)
Alignment : Aligned on interleaves
Interleave, duration : 24 ms (0.72 video frame)
Interleave, preload duration : 170 ms
Writing library : LAME3.98r
Encoding settings : -m j -V 4 -q 2 -lowpass 17 --abr 128

In Brief
Format : AVI
Size : 698 MB
Duration : 02:35:23
Resolution : 672X304
Source : Original DVD
Audio : MP3, 2 Channel, 128 KBPS


Code:

http://www.mediafire.com/?pu42b4a929e454g
http://www.mediafire.com/?pojebsby4b4nrsz
http://www.mediafire.com/?w1q1900y6s71e7x
http://www.mediafire.com/?df3qj7nl242fq58

 
Forum-We_R_F_&_F » :..:: Bangla Zone ::..: » Kolkata Entertainment » Bolo Na Tumi Aamar (2010) - DVDRip - 1CD - XviD - MP3
Page 1 of 11
Search: