Please enable / Bitte aktiviere JavaScript!
Veuillez activer / Por favor activa el Javascript![ ? ]
Home » 2011 » September » 9 » Always Kabhi Kabhi - (2011) - Music Videos - Untouched - DVD9 - NTSC - bollyatoz
6:26 PM
Always Kabhi Kabhi - (2011) - Music Videos - Untouched - DVD9 - NTSC - bollyatoz

Movie : Always Kabhi Kabhi - (2011)
Imdb : http://www.imdb.com/title/tt1937092/
Source : DVD9 @ iBR
Ripper : Ibraram @ DrC
Size : 1.40 GB
Container : Vobs Untouched
Release Date : 6 May 2011 (India)
Genre : Comedy | Drama
Director : Roshan Abbas
Writers : Roshan Abbas (story), Kanika Dhillon (additional screenplay)
Stars : Lillete Dubey, Satyajeet Dubey and Ali Fazal
User Rating : 5.5
Format : MPEG-PS
Overall bit rate : 7 618 Kbps

Video
ID : 224 (0xE0)
Format : MPEG Video
Format version : Version 2
Format profile : Main@Main
Format settings, BVOP : Yes
Format settings, Matrix : Custom
Bit rate mode : Variable
Bit rate : 6 794 Kbps
Nominal bit rate : 8 000 Kbps
Width : 720 pixels
Height : 480 pixels
Display aspect ratio : 16:9
Frame rate : 23.976 fps
Standard : NTSC
Color space : YUV
Chroma subsampling : 4:2:0
Bit depth : 8 bits
Scan type : Progressive
Scan order : 2:3 Pulldown
Compression mode : Lossy
Bits/(Pixel*Frame) : 0.820
Stream size : 113 MiB (89%)

Audio #1
ID : 189 (0xBD)-128 (0x80)
Format : AC-3
Format/Info : Audio Coding 3
Mode extension : CM (complete main)
Muxing mode : DVD-Video
Bit rate mode : Constant
Bit rate : 448 Kbps
Channel(s) : 6 channels
Channel positions : Front: L C R, Side: L R, LFE
Sampling rate : 48.0 KHz
Bit depth : 16 bits
Compression mode : Lossy
Delay relative to video : -170ms
Stream size : 7.46 MiB (6%)

Audio #2
ID : 189 (0xBD)-129 (0x81)
Format : AC-3
Format/Info : Audio Coding 3
Mode extension : CM (complete main)
Muxing mode : DVD-Video
Bit rate mode : Constant
Bit rate : 224 Kbps
Channel(s) : 2 channels
Channel positions : Front: L R
Sampling rate : 48.0 KHz
Bit depth : 16 bits
Compression mode : Lossy
Delay relative to video : -74ms
Stream size : 3.73 MiB (3%)

DOWNLOAD LINK:
Code:

http://www.fileserve.com/file/DK7BWmA/01_-_School_Ke_Din_-_Always_Kabhi_Kabhi_-_(2011)_-_Music_Videos_-_Untouched_-_DVD9_-_NTSC_-_Ibraram.VOB
http://www.fileserve.com/file/QJx6KN..._-_Ibraram.VOB
http://www.fileserve.com/file/fgykWm..._-_Ibraram.VOB
http://www.fileserve.com/file/k5pgGM..._-_Ibraram.VOB
http://www.fileserve.com/file/eb29nF..._-_Ibraram.VOB
http://www.fileserve.com/file/P295tS..._-_Ibraram.VOB
http://www.fileserve.com/file/Jj4DDE..._-_Ibraram.VOB
http://www.fileserve.com/file/c675Hp..._-_Ibraram.VOB


Code:

http://www.wupload.com/file/108170938/01 - School Ke Din - Always Kabhi Kabhi - (2011) - Music Videos - Untouched - DVD9 - NTSC - Ibraram.VOB
http://www.wupload.com/file/108173957/02 - Undi Ki Condi- Always Kabhi Kabhi - (2011) - Music Videos - Untouched - DVD9 - NTSC - Ibraram.VOB
http://www.wupload.com/file/108174347/03 - Better Not Mess With Me- Always Kabhi Kabhi - (2011) - Music Videos - Untouched - DVD9 - NTSC - Ibraram.VOB
http://www.wupload.com/file/108178784/04 - - Always Kabhi Kabhi (I)- Always Kabhi Kabhi - (2011) - Music Videos - Untouched - DVD9 - NTSC - Ibraram.VOB
http://www.wupload.com/file/108178789/05 - Jaane Kiyun- Always Kabhi Kabhi - (2011) - Music Videos - Untouched - DVD9 - NTSC - Ibraram.VOB
http://www.wupload.com/file/108170957/06 - Always Kabhi Kabhi (II)- Always Kabhi Kabhi - (2011) - Music Videos - Untouched - DVD9 - NTSC - Ibraram.VOB
http://www.wupload.com/file/108179114/07 - Antenna- Always Kabhi Kabhi - (2011) - Music Videos - Untouched - DVD9 - NTSC - Ibraram.VOB
http://www.wupload.com/file/108173998/08 - Bonus Track - Always Kabhi Kabhi - (2011) - Music Videos - Untouched - DVD9 - NTSC - Ibraram.VOB

Code:

http://www.filesonic.com/file/1694295744/01 - School Ke Din - Always Kabhi Kabhi - (2011) - Music Videos - Untouched - DVD9 - NTSC - Ibraram.VOB
http://www.filesonic.com/file/1694304534/02 - Undi Ki Condi- Always Kabhi Kabhi - (2011) - Music Videos - Untouched - DVD9 - NTSC - Ibraram.VOB
http://www.filesonic.com/file/1694304524/03 - Better Not Mess With Me- Always Kabhi Kabhi - (2011) - Music Videos - Untouched - DVD9 - NTSC - Ibraram.VOB
http://www.filesonic.com/file/1694309044/04 - - Always Kabhi Kabhi (I)- Always Kabhi Kabhi - (2011) - Music Videos - Untouched - DVD9 - NTSC - Ibraram.VOB
http://www.filesonic.com/file/1694309154/05 - Jaane Kiyun- Always Kabhi Kabhi - (2011) - Music Videos - Untouched - DVD9 - NTSC - Ibraram.VOB
http://www.filesonic.com/file/1694300324/06 - Always Kabhi Kabhi (II)- Always Kabhi Kabhi - (2011) - Music Videos - Untouched - DVD9 - NTSC - Ibraram.VOB
http://www.filesonic.com/file/1694312394/07 - Antenna- Always Kabhi Kabhi - (2011) - Music Videos - Untouched - DVD9 - NTSC - Ibraram.VOB
http://www.filesonic.com/file/1694304514/08 - Bonus Track - Always Kabhi Kabhi - (2011) - Music Videos - Untouched - DVD9 - NTSC - Ibraram.VOB


Category: Music Videos | Views: 411 | Added by: zxtu | Rating: 0.0/0
Total comments: 0
Name *:
Email *:
Code *: