Please enable / Bitte aktiviere JavaScript!
Veuillez activer / Por favor activa el Javascript![ ? ]
Home » 2010 » October » 8 » Bolona Tumi Amar 2010 XviD 1Cd Mp3
12:08 PM
Bolona Tumi Amar 2010 XviD 1Cd Mp3
Image

Image


Code:
General
Complete name                    : [DxR] Bolona Tumi Amar 2010 XviD 1Cd Mp3 -=K4K=-.avi
Format                           : AVI
Format/Info                      : Audio Video Interleave
File size                        : 697 MiB
Duration                         : 2h 35mn
Overall bit rate                 : 627 Kbps
Writing application              : VirtualDubMod 1.5.4.1 (build 2178/release)
Writing library                  : VirtualDubMod build 2178/release

Video
ID                               : 0
Format                           : MPEG-4 Visual
Format profile                   : Advanced Simple@L5
Format settings, BVOP            : Yes
Format settings, QPel            : No
Format settings, GMC             : No warppoints
Format settings, Matrix          : Custom
Codec ID                         : XVID
Codec ID/Hint                    : XviD
Duration                         : 2h 35mn
Bit rate                         : 526 Kbps
Width                            : 608 pixels
Height                           : 320 pixels
Display aspect ratio             : 1.900
Frame rate                       : 25.000 fps
Resolution                       : 8 bits
Colorimetry                      : 4:2:0
Scan type                        : Progressive
Bits/(Pixel*Frame)               : 0.108
Stream size                      : 584 MiB (84%)
Writing library                  : XviD 1.2.1 (UTC 2008-12-04)

Audio
ID                               : 1
Format                           : MPEG Audio
Format version                   : Version 1
Format profile                   : Layer 3
Format_Settings_Mode             : Joint stereo
Codec ID                         : 55
Codec ID/Hint                    : MP3
Duration                         : 2h 35mn
Bit rate mode                    : Variable
Bit rate                         : 91.5 Kbps
Nominal bit rate                 : 96.0 Kbps
Channel(s)                       : 2 channels
Sampling rate                    : 32.0 KHz
Stream size                      : 102 MiB (15%)
Alignment                        : Aligned on interleaves
Interleave, duration             : 36 ms (0.90 video frame)
Interleave, preload duration     : 623 ms
Writing library                  : LAME3.97
Encoding settings                : -m j -V 4 -q 2 -lowpass 15.1 --abr 96


Image
Image
Image
Image
Image

Image

http://www.mediafire.com/?l1fzts6bknl17w1
http://www.mediafire.com/?k3ep4i5vb9ri3p1
http://www.mediafire.com/?899os6tn3t350yj
http://www.mediafire.com/?bf9e53xl2175rm8

PASSWORD:-DeshiBeat.com
Category: Movies | Views: 328 | Added by: zxtu | Rating: 0.0/0
Total comments: 0
Name *:
Email *:
Code *: