Please enable / Bitte aktiviere JavaScript!
Veuillez activer / Por favor activa el Javascript![ ? ]
Home » 2011 » November » 6 » Saheb Biwi Aur Gangster (2011) - Music Videos - Untouched - DVD9 - NTSC - Ibraram DrC
3:23 PM
Saheb Biwi Aur Gangster (2011) - Music Videos - Untouched - DVD9 - NTSC - Ibraram DrC

















Code:
Movie : Saheb Biwi Aur Gangster (2011)
Imdb :
Code:
http://www.imdb.com/title/tt2073070/
Wikipedia :
Code:
http://en.wikipedia.org/wiki/Saheb_Biwi_Aur_Gangster
Language : Hindi | English (few lines and a song)
Distributor : RELIANCE Home Video
Source : DVD9
Ripper : Ibraram @ DrC
Size : 858 MB
Container : Vobs Untouched
Release Date : September 30, 2011 (INDIA)
Genre : Action | Drama | Crime
Director : Tigmanshu Dhulia
Writers : Tigmanshu Dhulia, Sanjay Chauhan
Stars : Shreya Narayan, Mahie Gill and Rajiv Gupta
Music by : Amit Sial , Sunil Bhatia , Jaidev Kumar , Anuj Garg , Abhishek Ray , Ankit Tiwari , Mukhtar Sahota
User Rating : 6.7/10 from 180 users

Ripper Note:


Njoy DrC Release.

Always Seed After Complete Enjoy.


Storyline

Code:


After the death of his first wife, wealthy Raja Aditya

Pratap Singh, re-marries another woman, simply known

as Chhoti Rani, who subsequently becomes mentally unstable.

His father's former mistress, Badi Rani, controls the

wealth, while he himself has a mistress. Unable to procure

contracts through Mantri Prabhu Tiwari, he decides to

stand for elections, while his rival, Ghenda Singh,

recruits an assassin, Babalu, who is also the nephew of

Sunder, Chhoti Rani's chauffeur, to kill Aditya. After

Sunder is unable to drive due to an injury, he recommends

Babalu, and Aditya hires him. Babalu settles down in his

new job, attempts to get accepted by everyone, including

Chhoti Rani, who he finds attractive. He soon finds out

that she, too, has feelings for him, and then starts

making plans of not only carrying out his assigned task

but also becoming the next Saheb.


Technical info:

Code:



Format : MPEG-PS
Overall bit rate : 7 448 Kbps

Video
ID : 224 (0xE0)
Format : MPEG Video
Format version : Version 2
Format profile : Main@Main
Format settings, BVOP : Yes
Format settings, Matrix : Custom
Bit rate mode : Variable
Bit rate : 6 628 Kbps
Maximum bit rate : 9 800 Kbps
Width : 720 pixels
Height : 480 pixels
Display aspect ratio : 16:9
Frame rate : 29.970 fps
Standard : NTSC
Color space : YUV
Chroma subsampling : 4:2:0
Bit depth : 8 bits
Scan type : Progressive
Scan order : Top Field First
Compression mode : Lossy
Bits/(Pixel*Frame) : 0.640
Stream size : 149 MiB (89%)

Audio #1
ID : 189 (0xBD)-128 (0x80)
Format : AC-3
Format/Info : Audio Coding 3
Mode extension : CM (complete main)
Muxing mode : DVD-Video
Duration : 3mn 9s
Bit rate mode : Constant
Bit rate : 448 Kbps
Channel(s) : 6 channels
Channel positions : Front: L C R, Side: L R, LFE
Sampling rate : 48.0 KHz
Bit depth : 16 bits
Compression mode : Lossy
Delay relative to video : -193ms
Stream size : 10.1 MiB (6%)

Audio #2
ID : 189 (0xBD)-129 (0x81)
Format : AC-3
Format/Info : Audio Coding 3
Mode extension : CM (complete main)
Muxing mode : DVD-Video
Duration : 3mn 9s
Bit rate mode : Constant
Bit rate : 224 Kbps
Channel(s) : 2 channels
Channel positions : Front: L R
Sampling rate : 48.0 KHz
Bit depth : 16 bits
Compression mode : Lossy
Delay relative to video : -129ms
Stream size : 5.05 MiB (3%)

Text
ID : 189 (0xBD)-32 (0x20)
Format : RLE
Format/Info : Run-length encoding
Muxing mode : DVD-Video
Delay relative to video : 3s 203ms

Track List:

Code:
01 - Raat Mujhe - Saheb Biwi Aur Gangster (2011) - Music Videos - Untouched - DVD9 - NTSC - Ibraram-=DrC=-
02 - Chu Chu Chu - Saheb Biwi Aur Gangster (2011) - Music Videos - Untouched - DVD9 - NTSC - Ibraram-=DrC=-
03 - We Ankhian - Saheb Biwi Aur Gangster (2011) - Music Videos - Untouched - DVD9 - NTSC - Ibraram-=DrC=-
04 - Jugni - Saheb Biwi Aur Gangster (2011) - Music Videos - Untouched - DVD9 - NTSC - Ibraram-=DrC=-
05 - Saheb Bada Hathila - Saheb Biwi Aur Gangster (2011) - Music Videos - Untouched - DVD9 - NTSC - Ibraram-=DrC=-
06 - I Love To Love You - Saheb Biwi Aur Gangster (2011) - Music Videos - Untouched - DVD9 - NTSC - Ibraram-=DrC=-




























Code:
http://www.filesonic.com/file/3099260944/01 - Raat Mujhe - Saheb Biwi Aur Gangster (2011) - Music Videos - Untouched - DVD9 - NTSC - Ibraram.VOB
http://www.filesonic.com/file/3099260404/02 - Chu Chu Chu - Saheb Biwi Aur Gangster (2011) - Music Videos - Untouched - DVD9 - NTSC - Ibraram.VOB
http://www.filesonic.com/file/3099260394/03 - We Ankhian - Saheb Biwi Aur Gangster (2011) - Music Videos - Untouched - DVD9 - NTSC - Ibraram.VOB
http://www.filesonic.com/file/3099260184/04 - Jugni - Saheb Biwi Aur Gangster (2011) - Music Videos - Untouched - DVD9 - NTSC - Ibraram.VOB
http://www.filesonic.com/file/3099260384/05 - Saheb Bada Hathila - Saheb Biwi Aur Gangster (2011) - Music Videos - Untouched - DVD9 - NTSC - Ibraram.VOB
http://www.filesonic.com/file/3099265394/06 - I Love To Love You - Saheb Biwi Aur Gangster (2011) - Music Videos - Untouched - DVD9 - NTSC - Ibraram.VOB
Code:
http://www.fileserve.com/file/uX96fxM/01 - Raat Mujhe - Saheb Biwi Aur Gangster (2011) - Music Videos - Untouched - DVD9 - NTSC - Ibraram.VOB
http://www.fileserve.com/file/Kr4W4ee/02 - Chu Chu Chu - Saheb Biwi Aur Gangster (2011) - Music Videos - Untouched - DVD9 - NTSC - Ibraram.VOB
http://www.fileserve.com/file/ug6uhTa/03 - We Ankhian - Saheb Biwi Aur Gangster (2011) - Music Videos - Untouched - DVD9 - NTSC - Ibraram.VOB
http://www.fileserve.com/file/YBn3ZcY/04 - Jugni - Saheb Biwi Aur Gangster (2011) - Music Videos - Untouched - DVD9 - NTSC - Ibraram.VOB
http://www.fileserve.com/file/hH7KCXt/05 - Saheb Bada Hathila - Saheb Biwi Aur Gangster (2011) - Music Videos - Untouched - DVD9 - NTSC - Ibraram.VOB
http://www.fileserve.com/file/XpCxJN3/06 - I Love To Love You - Saheb Biwi Aur Gangster (2011) - Music Videos - Untouched - DVD9 - NTSC - Ibraram.VOB
Code:
http://www.wupload.com/file/1971667082/01 - Raat Mujhe - Saheb Biwi Aur Gangster (2011) - Music Videos - Untouched - DVD9 - NTSC - Ibraram.VOB
http://www.wupload.com/file/1971686402/02 - Chu Chu Chu - Saheb Biwi Aur Gangster (2011) - Music Videos - Untouched - DVD9 - NTSC - Ibraram.VOB
http://www.wupload.com/file/1971686187/03 - We Ankhian - Saheb Biwi Aur Gangster (2011) - Music Videos - Untouched - DVD9 - NTSC - Ibraram.VOB
http://www.wupload.com/file/1971667657/04 - Jugni - Saheb Biwi Aur Gangster (2011) - Music Videos - Untouched - DVD9 - NTSC - Ibraram.VOB
http://www.wupload.com/file/1971686182/05 - Saheb Bada Hathila - Saheb Biwi Aur Gangster (2011) - Music Videos - Untouched - DVD9 - NTSC - Ibraram.VOB
http://www.wupload.com/file/1971667667/06 - I Love To Love You - Saheb Biwi Aur Gangster (
Category: Music Videos | Views: 434 | Added by: zxtu | Rating: 0.0/0
Total comments: 0
Name *:
Email *:
Code *: